<?xml version="1.0" standalone="no"?>
<!DOCTYPE svg PUBLIC "-//W3C//DTD SVG 1.1//EN" "http://www.w3.org/Graphics/SVG/1.1/DTD/svg11.dtd" >
<svg xmlns="http://www.w3.org/2000/svg">
<metadata>Generated by IcoMoon</metadata>
<defs>
<font id="icomoon" horiz-adv-x="1024">
<font-face units-per-em="1024" ascent="960" descent="-64" />
<missing-glyph horiz-adv-x="1024" />
<glyph unicode="&#x20;" horiz-adv-x="512" d="" />
<glyph unicode="&#xe631;" glyph-name="mail" d="M512 447.808l-512 259v61q0 27 19 45.5t45 18.5h896q26 0 45-18.5t19-45.5v-61zM480 383.808h64l480 249v-505q0-26-19-45t-45-19h-896q-26 0-45 19t-19 45v505z" />
<glyph unicode="&#xe634;" glyph-name="download" d="M896-64.192h-768q-53 0-90.5 37.5t-37.5 90.5v96q0 26 18.5 45t45 19 45.5-19 19-45v-32q0-27 18.5-45.5t45.5-18.5h640q26 0 45 18.5t19 45.5v32q0 26 18.5 45t45 19 45.5-19 19-45v-96q0-53-37.5-90.5t-90.5-37.5zM545 205.808q-14-14-33-14t-33 14l-341 345q-12 13-8.5 19t18.5 6h236v320q0 27 18.5 45.5t45.5 18.5h128q27 0 45.5-18.5t18.5-45.5v-320h235q15 0 19-6t-8-19z" />
<glyph unicode="&#xe900;" glyph-name="chevron-bold-right" d="M652.8 537.6l-278.4 275.2-86.4-86.4 278.4-275.2-281.6-281.6 86.4-86.4 368 368z" />
<glyph unicode="&#xe901;" glyph-name="chevron-thin-down" d="M891.802 660.019c13.926 13.722 36.301 13.722 50.125 0s13.875-35.891 0-49.613l-404.89-400.896c-13.824-13.722-36.198-13.722-50.125 0l-404.89 400.896c-13.824 13.722-13.824 35.891 0 49.613 13.875 13.722 36.301 13.722 50.125 0l379.853-365.619 379.802 365.619z" />
<glyph unicode="&#xe902;" glyph-name="memo" d="M899.2 166.4v0 0 793.6h-771.2v-1024h546.8l224.4 230.4zM896 169.6v0 0 0zM668.8-42.3v211.9h206.3l-206.3-211.9zM281.6 745.6h473.6v-89.6h-473.6v89.6zM281.6 576h473.6v-89.6h-473.6v89.6zM281.6 409.6h473.6v-89.6h-473.6v89.6z" />
<glyph unicode="&#xe903;" glyph-name="map" d="M52.2-25.7c0 7 0 13.1 0 19.2 0 1.8 0.1 3.7 0.1 5.5 0.1 95.8 0.1 191.6 0.2 287.5 0.1 49.7 0.3 99.3 0.4 149 0.1 48.2 0.2 96.3 0.2 144.5 0 4 1 5.7 5 6.8 48.6 12.7 97.2 25.6 145.7 38.4 1.4 0.4 2.8 0.6 4.1 0.9 5.2-17.8 10.3-35.1 15.5-52.9-12-3.1-23.9-6.1-35.8-9.1-24.4-6.1-48.7-12.4-73.1-18.3-4-1-5.2-2.7-5.1-6.8 0.3-60.8 0.4-121.6 0.5-182.5 0.1-60.5 0.2-121 0.3-181.5 0.1-41.5 0.2-83 0.3-124.5 0-1.6 0-3.2 0-5.6 10.3 2.9 19.9 5.6 29.4 8.3 65.3 18.6 130.5 37.3 195.8 55.8 4.1 1.2 5.7 2.8 5.7 7.4-0.2 25.8 0 51.7 0.1 77.5 0.3 71.8 0.5 143.6 0.8 215.5 0 1.1 0 2.3 0 3.4 0.4 0.3 0.8 0.7 1.3 1 3.5-3.8 6.9-7.8 10.5-11.5 13.6-14.2 27.2-28.4 40.9-42.4 2.8-2.8 3.9-5.7 3.9-9.6 0-45.5 0.1-91 0.3-136.5 0.1-27 0.5-54 0.6-81 0-3 0.6-4.8 3.8-5.9 73.9-25.4 147.8-50.9 221.8-76.4 1.1-0.4 2.2-0.6 3.7-1 0.2 1.3 0.5 2.4 0.5 3.5 0.2 15.2 0.4 30.3 0.4 45.5 0.2 71.5 0.3 143 0.4 214.5 0 19 0.1 38 0.3 57 0 2.3 0.7 5.2 2.2 6.7 17.7 18.5 35.6 36.8 54.7 55 0-132.5 0-264.9 0-398.2 11.2 3.4 21.2 6.4 31.2 9.5 64.9 20 129.7 40 194.6 59.9 4.2 1.3 5.7 3 5.7 7.5 0 81.2 0.2 162.3 0.3 243.5 0.1 56.2 0.1 112.3 0.2 168.5 0.1 25.8 0.3 51.6 0.4 77.5 0 1.9 0 3.9 0 6.4-44.1-9.6-87.4-19.1-131.7-28.8 4.4 12.6 8.5 24 12.4 35.4 2 5.8 4 11.7 5.4 17.6 0.6 2.8 1.8 3.8 4.4 4.4 47.9 11.3 95.9 22.6 143.8 33.9 6.8 1.6 13.6 3.2 20.9 4.9 0-2.2 0-3.9 0-5.7 0-45.2 0-90.3 0-135.5 0-49.8-0.1-99.7-0.2-149.5-0.1-49.2-0.3-98.3-0.4-147.5-0.1-56.5-0.3-113-0.3-169.5 0-4.2-1.2-5.9-5.3-7.2-92.3-28.7-184.5-57.7-276.7-86.4-2.4-0.8-5.6-0.7-8 0.2-93 33-185.9 66-278.8 99.3-3.8 1.3-6.3 0-9.4-1-11.1-3.4-22.4-6.5-33.6-9.6-99.5-27.9-198.9-55.9-298.4-83.8-3.8-1-7.5-2-11.9-3.2zM502.8 327.4c-9.6 11.9-18.9 23.4-28.2 35-60 74.6-120.2 149.2-179.8 224.1-7.2 9.1-11.7 20.5-16.6 31.2-13.4 29.3-18 60.2-17.2 92.3 1.2 45.6 17.7 85.3 44.6 121.2 37.7 50.3 88.4 79.8 149.7 90.4 81.9 14.1 155.3-5.2 217.3-61.3 46.3-41.9 70.3-95.1 71.7-157.7 0.7-31.5-7.5-61.1-20.7-89.7-9.3-20.2-23.5-36.6-37-53.7-59.7-75.5-119.5-151-179.3-226.4-1.5-1.7-2.8-3.4-4.5-5.4zM499.9 588.9c4.5 0 9-0.5 13.4 0.1 39.9 4.8 71.3 23.3 92.8 57.7 15.8 25.2 19.6 52.6 12.2 80.6-13.1 49.3-61.1 85.8-112 87.6-35 1.3-65.5-9.9-91.5-33-24-21.3-37.3-48.7-37.2-80.5 0.1-32 13.1-59.5 37.4-81 24.1-21.4 52.6-32 84.9-31.5z" />
<glyph unicode="&#xe904;" glyph-name="checkmark" d="M864 832l-480-480-224 224-160-160 384-384 640 640z" />
<glyph unicode="&#xe905;" glyph-name="checkbox-unchecked" d="M896 960h-768c-70.4 0-128-57.6-128-128v-768c0-70.4 57.6-128 128-128h768c70.4 0 128 57.6 128 128v768c0 70.4-57.6 128-128 128zM896 64h-768v768h768v-768z" />
<glyph unicode="&#xe906;" glyph-name="plus" d="M992 576h-352v352c0 17.672-14.328 32-32 32h-192c-17.672 0-32-14.328-32-32v-352h-352c-17.672 0-32-14.328-32-32v-192c0-17.672 14.328-32 32-32h352v-352c0-17.672 14.328-32 32-32h192c17.672 0 32 14.328 32 32v352h352c17.672 0 32 14.328 32 32v192c0 17.672-14.328 32-32 32z" />
<glyph unicode="&#xe907;" glyph-name="minus" d="M0 544v-192c0-17.672 14.328-32 32-32h960c17.672 0 32 14.328 32 32v192c0 17.672-14.328 32-32 32h-960c-17.672 0-32-14.328-32-32z" />
<glyph unicode="&#xe908;" glyph-name="cancel-circle" d="M512 960c-282.77 0-512-229.23-512-512s229.23-512 512-512 512 229.23 512 512-229.23 512-512 512zM512 32c-229.75 0-416 186.25-416 416s186.25 416 416 416 416-186.25 416-416-186.25-416-416-416zM672 704l-160-160-160 160-96-96 160-160-160-160 96-96 160 160 160-160 96 96-160 160 160 160z" />
<glyph unicode="&#xe909;" glyph-name="cross" d="M1014.662 137.34c-0.004 0.004-0.008 0.008-0.012 0.010l-310.644 310.65 310.644 310.65c0.004 0.004 0.008 0.006 0.012 0.010 3.344 3.346 5.762 7.254 7.312 11.416 4.246 11.376 1.824 24.682-7.324 33.83l-146.746 146.746c-9.148 9.146-22.45 11.566-33.828 7.32-4.16-1.55-8.070-3.968-11.418-7.31 0-0.004-0.004-0.006-0.008-0.010l-310.648-310.652-310.648 310.65c-0.004 0.004-0.006 0.006-0.010 0.010-3.346 3.342-7.254 5.76-11.414 7.31-11.38 4.248-24.682 1.826-33.83-7.32l-146.748-146.748c-9.148-9.148-11.568-22.452-7.322-33.828 1.552-4.16 3.97-8.072 7.312-11.416 0.004-0.002 0.006-0.006 0.010-0.010l310.65-310.648-310.65-310.652c-0.002-0.004-0.006-0.006-0.008-0.010-3.342-3.346-5.76-7.254-7.314-11.414-4.248-11.376-1.826-24.682 7.322-33.83l146.748-146.746c9.15-9.148 22.452-11.568 33.83-7.322 4.16 1.552 8.070 3.97 11.416 7.312 0.002 0.004 0.006 0.006 0.010 0.010l310.648 310.65 310.648-310.65c0.004-0.002 0.008-0.006 0.012-0.008 3.348-3.344 7.254-5.762 11.414-7.314 11.378-4.246 24.684-1.826 33.828 7.322l146.746 146.748c9.148 9.148 11.57 22.454 7.324 33.83-1.552 4.16-3.97 8.068-7.314 11.414z" />
<glyph unicode="&#xe90a;" glyph-name="circle-up" d="M0 448c0-282.77 229.23-512 512-512s512 229.23 512 512-229.23 512-512 512-512-229.23-512-512zM928 448c0-229.75-186.25-416-416-416s-416 186.25-416 416 186.25 416 416 416 416-186.25 416-416zM706.744 290.744l90.512 90.512-285.256 285.254-285.254-285.256 90.508-90.508 194.746 194.744z" />
<glyph unicode="&#xe90b;" glyph-name="circle-right" d="M512 960c-282.77 0-512-229.23-512-512s229.23-512 512-512 512 229.23 512 512-229.23 512-512 512zM512 32c-229.75 0-416 186.25-416 416s186.25 416 416 416 416-186.25 416-416-186.25-416-416-416zM354.744 253.256l90.512-90.512 285.254 285.256-285.256 285.254-90.508-90.508 194.744-194.746z" />
<glyph unicode="&#xe90c;" glyph-name="circle-down" d="M1024 448c0 282.77-229.23 512-512 512s-512-229.23-512-512 229.23-512 512-512 512 229.23 512 512zM96 448c0 229.75 186.25 416 416 416s416-186.25 416-416-186.25-416-416-416-416 186.25-416 416zM317.256 605.256l-90.512-90.512 285.256-285.254 285.254 285.256-90.508 90.508-194.746-194.744z" />
<glyph unicode="&#xe90d;" glyph-name="circle-left" d="M512-64c282.77 0 512 229.23 512 512s-229.23 512-512 512-512-229.23-512-512 229.23-512 512-512zM512 864c229.75 0 416-186.25 416-416s-186.25-416-416-416-416 186.25-416 416 186.25 416 416 416zM669.256 642.744l-90.512 90.512-285.254-285.256 285.256-285.254 90.508 90.508-194.744 194.746z" />
<glyph unicode="&#xe90e;" glyph-name="location" d="M512 960c-176.732 0-320-143.268-320-320 0-320 320-704 320-704s320 384 320 704c0 176.732-143.27 320-320 320zM512 448c-106.040 0-192 85.96-192 192s85.96 192 192 192 192-85.96 192-192-85.96-192-192-192z" />
<glyph unicode="&#xe90f;" glyph-name="chevron-thin-left" d="M711.219 80.998c13.722-13.926 13.722-36.301 0-50.125s-35.891-13.875-49.613 0l-400.896 404.89c-13.722 13.824-13.722 36.198 0 50.125l400.896 404.89c13.722 13.824 35.891 13.824 49.613 0 13.722-13.875 13.722-36.301 0-50.125l-365.619-379.853 365.619-379.802z" />
<glyph unicode="&#xe910;" glyph-name="chevron-thin-right" d="M678.4 460.8l-365.619 379.904c-13.722 13.824-13.722 36.198 0 50.125 13.722 13.824 35.891 13.824 49.613 0l400.896-404.89c13.722-13.875 13.722-36.301 0-50.125l-400.896-404.89c-13.722-13.875-35.891-13.824-49.613 0-13.722 13.773-13.722 36.198 0 50.125l365.619 379.75z" />
<glyph unicode="&#xe911;" glyph-name="chevron-thin-up" d="M132.198 261.581c-13.926-13.722-36.301-13.722-50.125 0s-13.875 35.891 0 49.613l404.89 400.896c13.824 13.722 36.198 13.722 50.125 0l404.89-400.896c13.824-13.722 13.824-35.891 0-49.613-13.875-13.722-36.301-13.722-50.074 0l-379.904 365.619-379.802-365.619z" />
<glyph unicode="&#xe912;" glyph-name="chevron-bold-left" d="M284.8 451.2l368-368 86.4 86.4-281.6 281.6 278.4 275.2-86.4 86.4-278.4-275.2-86.4-86.4z" />
<glyph unicode="&#xe913;" glyph-name="menu" d="M64 768h896v-192h-896zM64 512h896v-192h-896zM64 256h896v-192h-896z" />
<glyph unicode="&#xe914;" glyph-name="chevron-bold-up" d="M422.4 588.8l-275.2-278.4 86.4-86.4 275.2 278.4 281.6-281.6 86.4 86.4-368 368-86.4-86.4z" />
<glyph unicode="&#xe915;" glyph-name="chevron-bold-down" d="M508.8 220.8l368 368-86.4 86.4-281.6-281.6-275.2 278.4-86.4-86.4 275.2-278.4 86.4-86.4z" />
<glyph unicode="&#xe916;" glyph-name="card-1" horiz-adv-x="1124" d="M1100.321 403.164h-944.138v-390.556c0-28.95 23.686-52.636 52.636-52.636h838.914c28.95 0 52.636 23.686 52.636 52.636l-0.048 390.556zM388.211 348.997h481.136v-34.787h-481.136v34.787zM388.211 261.91h481.136v-34.787h-481.136v34.787zM388.211 175.013h481.136v-34.787h-481.136v34.787zM990.265 20.265h-720.389v50.339h720.389v-50.339zM320.311 628.827l3.828 17.465 79.24-17.465h251.502l-545.639 120.296-84.073-381.416c-6.221-28.28 11.819-56.511 40.051-62.732l66.991-14.786v262.077c0 42.204 34.357 76.561 76.561 76.561h111.539z" />
<glyph unicode="&#xe917;" glyph-name="card-2" horiz-adv-x="1124" d="M1047.686 604.902h-838.867c-28.95 0-52.636-23.686-52.636-52.636v-149.102h944.185v149.102c-0.048 28.95-23.734 52.636-52.683 52.636zM470.466 488.769h-246.956v34.787h246.956v-34.787zM1016.296 488.769h-420.988v34.787h420.988v-34.787zM1047.686 628.827c0.622 0 1.244 0 1.866 0l13.829 62.684c6.221 28.28-11.819 56.511-40.051 62.732l-819.248 180.588c-28.28 6.221-56.511-11.819-62.732-40.051l-32.108-145.609 545.687-120.296 392.757-0.048zM434.626 765.105l-241.166 53.162 7.513 33.974 241.166-53.162-7.513-33.974zM564.061 772.187l411.083-90.629-7.513-33.974-411.083 90.629 7.513 33.974z" />
<glyph unicode="&#xe918;" glyph-name="card-3" horiz-adv-x="1124" d="M223.51 523.556h246.956v-34.787h-246.956v34.787zM595.308 523.556h420.988v-34.787h-420.988v34.787zM388.211 348.997h481.136v-34.787h-481.136v34.787zM388.211 261.91h481.136v-34.787h-481.136v34.787zM388.211 175.013h481.136v-34.787h-481.136v34.787zM434.593 765.079l-241.177 53.17 7.49 33.973 241.177-53.17-7.49-33.973zM967.675 647.549l-411.137 90.639 7.49 33.973 411.137-90.639-7.49-33.973zM403.427 628.827l-79.24 17.465-3.876-17.465zM269.877 70.603h720.389v-50.339h-720.389v50.339z" />
<glyph unicode="&#xe919;" glyph-name="card-base" horiz-adv-x="1124" d="M1073.095 624.52v0l13.637 61.871c9.092 41.247-17.035 82.159-58.282 91.251l-819.2 180.54c-41.247 9.092-82.159-17.035-91.251-58.282l-116.181-527.025c-9.092-41.247 17.035-82.159 58.282-91.251l72.159-15.886v-253.129c0-42.204 34.357-76.561 76.561-76.561h838.914c42.204 0 76.561 34.357 76.561 76.561v539.658c-0.048 33.304-21.437 61.727-51.2 72.254zM132.259 552.266v-262.077l-66.991 14.786c-28.28 6.221-46.319 34.452-40.051 62.732l116.181 527.025c6.221 28.28 34.452 46.319 62.732 40.051l819.2-180.54c28.28-6.221 46.319-34.452 40.051-62.732l-13.829-62.684c0 0 0 0-0.048 0v0c-0.622 0-1.196 0-1.818 0h-838.867c-42.252 0-76.561-34.357-76.561-76.561zM1065.582 626.721c-0.048 0-0.048 0-0.096 0.048 0 0 0.048-0.048 0.096-0.048zM1064.147 627.056c-0.144 0.048-0.239 0.048-0.383 0.096 0.144-0.048 0.239-0.048 0.383-0.096zM1062.52 627.391c-0.144 0.048-0.335 0.048-0.479 0.096 0.191-0.048 0.335-0.048 0.479-0.096zM1060.845 627.679c-0.191 0.048-0.335 0.048-0.526 0.096 0.191 0 0.383-0.048 0.526-0.096zM1056.682 628.301c-0.287 0.048-0.622 0.096-0.909 0.096 0.287 0 0.622-0.048 0.909-0.096zM1054.959 628.492c-0.335 0.048-0.67 0.048-1.005 0.096 0.335-0.048 0.67-0.048 1.005-0.096zM1053.141 628.636c-0.335 0.048-0.718 0.048-1.053 0.048 0.335 0 0.718 0 1.053-0.048zM1051.37 628.731c-0.383 0-0.813 0.048-1.196 0.048 0.383 0 0.766 0 1.196-0.048zM1100.321 12.561c0-28.95-23.686-52.636-52.636-52.636h-838.867c-28.95 0-52.636 23.686-52.636 52.636v539.705c0 28.95 23.686 52.636 52.636 52.636h838.914c28.95 0 52.636-23.686 52.636-52.636l-0.048-539.705zM1049.552 628.827c-0.622 0-1.196 0-1.818 0 0.574 0 1.196 0 1.818 0z" />
<glyph unicode="&#xe91a;" glyph-name="checkbox" d="M835.5 854.2l-178.7-178.7h-470.6v-41.3l-186.5-186.5 186.5-186.5v-145.4h145.4l71.7-71.7 71.6 71.7h271.1v271.5l278 278.4-188.5 188.5zM272 589.8h299l-168.2-168.2-130.8 130.9v37.3zM660.2 201.5h-99.8l99.8 99.9v-99.9zM403.2 90.2l-357.5 357.5 142.5 142.5 214.6-214.6 432.7 432.6 142.5-142.5-574.8-575.5z" />
<glyph unicode="&#xe91b;" glyph-name="checked" d="M978 665.7l-142.5 142.5-432.7-432.7-214.6 214.7-142.5-142.5 357.5-357.5z" />
<glyph unicode="&#xe91c;" glyph-name="buster" d="M511.978 933.307c-267.104 0-484.419-217.271-484.419-484.375s217.315-484.419 484.419-484.419c267.104 0 484.419 217.315 484.419 484.419s-217.315 484.375-484.419 484.375zM894.218 448.932c0-87.012-29.25-167.308-78.389-231.658l-535.508 535.508c64.306 49.14 144.602 78.389 231.658 78.389 210.771 0 382.24-171.468 382.24-382.24zM129.739 448.932c0 87.012 29.25 167.308 78.389 231.658l535.508-535.508c-64.306-49.14-144.645-78.389-231.658-78.389-210.771-0.043-382.24 171.468-382.24 382.24z" />
<glyph unicode="&#xe91d;" glyph-name="round" d="M1024.043 447.978c0-282.782-229.24-512.022-512.022-512.022s-512.022 229.24-512.022 512.022c0 282.782 229.24 512.022 512.022 512.022s512.022-229.24 512.022-512.022z" />
<glyph unicode="&#xe91e;" glyph-name="smoking" d="M822.791 458.512h29.451v-98.154h-29.451v98.154zM171.758 458.512h634.681v-98.154h-634.681v98.154zM776.989 474.863h29.451c0 53.222-43.283 96.505-96.505 96.505h-153.071c-18.046 0-32.703 14.657-32.703 32.703 0 15.115 10.718 28.535 25.466 31.924l19.832 4.489 2.794 20.107c4.489 32.107 32.336 56.337 64.81 56.337 32.153 0 60.001-23.955 64.719-55.741l3.389-22.672 22.81-2.29c54.092-5.45 94.902-50.657 94.902-105.116v-56.291h29.451v56.337c0 69.848-53.314 127.513-121.422 134.384-6.825 45.665-46.306 80.841-93.849 80.841-47.863 0-87.528-35.588-93.986-81.711-27.71-6.229-48.413-31.054-48.413-60.551 0-34.26 27.894-62.154 62.154-62.154h153.071c37.008-0.046 67.1-30.138 67.1-67.1z" />
<glyph unicode="&#xe91f;" glyph-name="circle" d="M512.022 878.144c-237.551 0-430.122-192.571-430.122-430.122s192.571-430.122 430.122-430.122 430.122 192.571 430.122 430.122-192.571 430.122-430.122 430.122zM512.022 75.749c-205.615 0-372.273 166.658-372.273 372.273s166.658 372.273 372.273 372.273 372.273-166.658 372.273-372.273-166.702-372.273-372.273-372.273z" />
<glyph unicode="&#xe920;" glyph-name="note-1" horiz-adv-x="872" d="M455.415 810.874v23.197c0 0 0 0 0 0 0 33.778-27.316 61.175-61.063 61.307h-232.583c-33.759-0.132-61.075-27.529-61.075-61.307 0 0 0 0 0 0v-23.197h-100.693v-874.874h871.56v874.874h-416.145zM129.243 676.66h176.565v-70.421h-176.565v70.421zM732.375 94.239h-603.133v70.421h603.133v-70.421zM732.375 266.563h-603.133v70.421h603.133v-70.421zM732.375 438.887h-603.133v70.421h603.133v-70.421z" />
<glyph unicode="&#xe921;" glyph-name="note-2" horiz-adv-x="872" d="M129.243 336.984h603.133v-70.421h-603.133v70.421zM129.243 164.66h603.133v-70.421h-603.133v70.421zM129.243 676.66h176.565v-70.421h-176.565v70.421zM129.243 509.307h603.133v-70.421h-603.133v70.421zM840.078 960h-808.595c-17.364-0.056-31.426-14.118-31.482-31.477v-117.649h100.693v23.197c0 0 0 0 0 0 0 33.778 27.316 61.175 61.063 61.307h232.6c33.759-0.132 61.075-27.529 61.075-61.307 0 0 0 0 0 0v-23.197h416.128v117.644c-0.056 17.364-14.118 31.426-31.477 31.482z" />
<glyph unicode="&#xe922;" glyph-name="ico-oyako" horiz-adv-x="786" d="M398.282 497.367l3.345 3.345c5.154 5.266 12.334 8.532 20.277 8.532 8.705 0 16.494-3.922 21.697-10.094s84.187-67.872 95.558-67.872h156.53c12.516-0.158 23.666-5.873 31.119-14.785 8.459-9.811 14.214-22.063 16.067-35.56l0.040-0.36c5.485-42.41 41.875-163.888 41.875-163.888 0.548-2.24 0.863-4.811 0.863-7.455 0-14.613-9.602-26.983-22.84-31.146l-4.78-1.534c-2.658-0.91-5.721-1.435-8.906-1.435-13.373 0-24.585 9.256-27.578 21.711l-22.783 97.724v-328.044c-0.15-16.88-13.869-30.506-30.77-30.506-0.142 0-0.283 0.001-0.424 0.003h-13.357c-0.032 0-0.069 0-0.107 0-7.372 0-13.9 3.614-17.909 9.167l-0.045 0.065c-0.749 1.074-1.463 2.302-2.073 3.589-0.067 0.96-0.067 1.897-1.004 2.833s0 1.472-0.803 2.408c-0.935 3.44-1.473 7.389-1.473 11.464 0 0.109 0 0.218 0.001 0.326v196.783h-25.955v-196.131c0-1.070 0-2.141 0-3.211s0-1.873 0-2.81 0-2.676-0.803-3.88 0-1.204 0-1.739c-0.456-1.693-0.958-3.117-1.553-4.492l0.081-0.592c-0.742-1.645-1.546-3.050-2.466-4.368l0.058 0.087c-4.054-5.618-10.582-9.232-17.954-9.232-0.038 0-0.075 0-0.113 0h-13.373c-0.12-0.002-0.261-0.003-0.402-0.003-16.901 0-30.62 13.626-30.77 30.492v327.657c-8.813 33.209-24.611 61.974-45.807 85.837l0.186-0.213c-0.803 0.937-95.657 72.78-95.657 72.78-4.863 5.666-7.823 13.089-7.823 21.203 0 9.147 3.762 17.416 9.824 23.342zM683.648 514.626c0-36.501-29.709-66.090-66.358-66.090s-66.358 29.59-66.358 66.090c0 36.501 29.709 66.090 66.358 66.090s66.358-29.59 66.358-66.090zM451.796 467.934s-49.367 165.092-56.458 221.818c-2.578 18.711-10.343 35.256-21.777 48.554-9.95 12.316-25.099 20.294-42.12 20.612l-209.963 0.001c-16.876-0.227-31.903-7.948-41.937-19.979-11.403-13.264-19.167-29.809-21.69-48.029-7.414-57.885-56.647-222.977-56.647-222.977-0.753-3.051-1.185-6.555-1.185-10.159 0-19.696 12.897-36.379 30.706-42.066l6.333-1.959c3.634-1.267 7.823-1.999 12.183-1.999 18.067 0 33.199 12.566 37.133 29.435l30.955 132.171v-596.152c0.301-22.749 18.812-41.074 41.604-41.074 0.142 0 0.284 0.001 0.426 0.002h17.103c23.145 0 33.58 18.463 33.58 41.072v366.976h25.152v-366.976c0.301-22.749 18.812-41.074 41.604-41.074 0.142 0 0.284 0.001 0.426 0.002h17.103c0.12-0.001 0.262-0.002 0.405-0.002 22.792 0 41.303 18.326 41.604 41.046v596.18l30.637-131.779c3.938-17.188 19.1-29.817 37.212-29.817 4.35 0 8.529 0.728 12.423 2.070l5.886 1.793c17.864 5.926 30.522 22.481 30.522 41.994 0 3.661-0.446 7.218-1.286 10.62zM316.003 870.765c0-49.283-39.952-89.235-89.235-89.235s-89.235 39.952-89.235 89.235c0 49.283 39.952 89.235 89.235 89.235s89.235-39.952 89.235-89.235z" />
</font>
</defs>
</svg>
